#TITLE:Voices Of Passion;
#SUBTITLE:Expi3nze;
#ARTIST:Adrenalize;
#TITLETRANSLIT:;
#SUBTITLETRANSLIT:;
#ARTISTTRANSLIT:;
#CREDIT:;
#BANNER:bn.png;
#BACKGROUND:bg.png;
#LYRICSPATH:;
#CDTITLE:cdtitle.png;
#MUSIC:Adrenalize   Voices Of Passion HQ Preview.mp3;
#OFFSET:-0.220;
#SAMPLESTART:85.420;
#SAMPLELENGTH:23.600;
#SELECTABLE:YES;
#BPMS:0.000=300.000,0.500=600.000,2.500=300.000,3.000=150.000,182.500=75.000,182.667=300.000,183.000=150.000,214.000=75.000,214.333=300.000,215.000=150.000,278.000=75.000,278.333=300.000,279.000=150.000,310.000=300.000,310.500=600.000,312.500=300.000,313.000=150.000,352.000=300.000,352.250=75.000,352.375=150.000,352.500=300.000,352.750=75.000,352.875=150.000;
#STOPS:;
#BGCHANGES:;
// cache tags:
#FIRSTBEAT:0.000;
#LASTBEAT:440.000;
#SONGFILENAME:Songs/SDO pack 4/Voices Of Passion - Adrenalize/Adrenalize   Voices Of Passion HQ Preview.sm;
#HASMUSIC:1;
#HASBANNER:1;
#MUSICLENGTH:174.915;
// end cache tags

//---------------dance-single - ----------------
#NOTES:
     dance-single:
     :
     Hard:
     18:
     1.000,1.000,1.000,0.612,0.600,890.000,382.000,107.000,0.000,109.000:
0200
0000
0000
0000
0000
0000
2320
0100
,
0000
0100
0000
0000
0000
0000
0000
0100
,
0000
0100
0000
0000
0000
0000
0000
0100
,
0000
0100
0000
0000
0000
0000
0000
0100
,
0000
0100
3030
0000
2000
0020
3131
0100
,
0000
0100
0000
0000
0011
0000
0011
0000
,
0011
0011
1010
1010
,
1010
1010
0011
0011
,
0011
0000
0011
0000
0202
0000
1313
1010
,
0000
0000
1010
0000
0000
0000
1010
0000
0000
1001
0101
1001
0000
0000
1001
0000
,
0000
0000
1001
0000
0000
0000
1001
0000
0000
1001
0101
1001
0000
0000
1100
0000
,
0000
0000
1100
0000
0000
0000
1100
0000
0000
0000
1001
1010
1001
0000
0000
0000
,
0000
0000
0000
0000
0000
0000
0000
0000
0000
0000
0010
0010
1100
0000
0001
0000
,
1100
0001
2100
0000
3220
2000
3331
0001
,
0011
1000
0011
0200
2011
0300
3011
1000
,
0011
1000
0022
0000
2133
0020
3131
0010
,
0101
0000
0010
0000
0100
0000
1010
0100
2020
0000
0200
0000
3331
0000
1000
0000
,
1001
0001
1001
2002
0200
3023
1331
1000
,
1001
0010
2200
0001
3321
0002
1133
0001
,
1100
0001
2200
0000
3322
0000
1133
0001
,
1100
0000
0001
0000
1000
0100
0012
0100
1020
1000
1233
1000
1310
0000
0001
0000
,
1010
0001
2010
0000
3220
2000
3331
0001
,
0011
1000
0011
0200
2011
0300
3011
1000
,
0011
1000
0022
0000
2133
0020
3131
0010
,
0101
0000
1000
0010
1001
0000
1010
0000
2020
0000
0200
0000
3331
0000
1000
0000
,
1001
0001
1001
2002
0200
3023
1331
1000
,
1001
0010
2200
0001
3321
0002
1133
0001
,
1100
0001
2200
0000
3322
0000
1133
0001
,
1100
0000
1000
1000
1000
1000
1000
1000
2020
0000
0002
3000
2130
0000
0100
0000
,
0003
0100
0200
0000
0320
0200
0331
0010
,
0100
0001
0001
0200
0002
0300
0103
0010
,
0100
0010
0200
0000
0320
0200
0331
0010
,
0100
0000
0001
0000
0010
0000
0100
0000
0001
0000
0010
0001
0100
0000
0001
0000
,
0001
0100
0001
0200
0020
0332
0100
0103
,
0001
0100
0200
0000
0302
0200
0313
0010
,
0001
0100
0100
0001
0202
0000
3323
0000
,
0000
0000
0000
0000
,
0000
0000
0000
0200
,
0000
0000
0000
0000
,
0000
0000
0000
0032
,
0000
0000
0000
0000
,
0000
0000
0000
2300
,
0000
0000
0000
0000
,
0000
0000
0000
0000
,
0000
0000
0000
3003
,
0000
0000
0000
0000
0000
0000
0000
0000
2000
0000
0200
0000
3312
0100
1000
0100
,
0010
1000
0100
0010
0100
1000
0010
0100
0010
0100
0010
1000
0100
0010
0100
1000
,
0010
0100
1000
0100
0010
1000
0100
1000
0100
1000
0010
0100
1000
0010
0100
1000
,
0100
0010
1000
0100
0010
1000
0100
0010
0100
1000
0010
0100
0010
1000
0100
0010
,
1000
0100
0010
0100
1000
0010
0100
0010
0100
0010
1000
0100
0010
0100
1000
0010
,
0100
1000
0010
0100
1000
0100
0010
1000
0100
0010
1000
0100
0010
1000
0100
1000
,
0100
1000
0010
0100
1000
0010
0100
1000
0010
0100
0010
0100
0010
1000
0100
0010
,
0100
1000
0100
0010
0100
1000
0010
0100
0010
0100
0010
1000
0100
1000
0100
1000
,
0100
0010
1000
0100
0020
0000
0000
0000
0000
0000
0030
0000
1013
0000
1010
0000
,
0001
0000
1010
0000
0000
0000
0011
0000
0000
0000
1010
0101
1010
0000
0011
0000
,
0011
0000
1001
0000
0000
0000
1001
0000
0000
0000
1010
0101
1010
0000
0011
0000
,
1001
0000
1001
0000
0000
0000
1010
0000
1010
0000
0101
1010
0101
0000
1010
0000
,
1010
0000
0011
0000
0000
0000
0011
0000
0011
0000
1001
1100
1001
0000
0011
0000
,
0110
0000
1100
0000
0101
0000
0101
0000
0000
0000
1001
1010
1001
0000
1010
0000
,
1010
0011
0011
1001
1001
1010
1001
0011
,
0110
1100
0000
0101
0000
0010
0010
1000
,
0100
0010
0000
0000
0000
0010
1010
1010
,
0001
0000
1010
0000
0000
0000
0011
0000
0000
0000
1010
0101
1010
0000
0011
0000
,
0011
0000
1001
0000
0000
0000
1001
0000
0000
0000
1010
0101
1010
0000
0011
0000
,
1001
0000
1001
0000
0000
0000
1010
0000
1010
0000
0101
1010
0101
0000
1010
0000
,
1010
0000
0011
0000
0000
0000
0011
0000
0011
0000
1001
1100
1001
0000
0011
0000
,
0110
0000
1100
0000
0101
0000
0101
0000
0000
0000
1001
1010
1001
0000
1010
0000
,
1010
0011
0011
1001
1001
1010
1001
0011
,
0110
1100
0000
0101
0000
0010
0010
1000
,
0100
0000
0010
0000
1000
0000
1000
0000
0020
0000
0000
0000
1030
0100
0010
0001
,
1010
0100
1000
0100
1001
0100
0010
0001
1010
0100
1000
0100
1001
0100
0010
0001
,
1010
0100
0010
0001
1010
0100
0010
0001
1100
0001
0010
0001
1110
0001
0010
0100
,
1001
0010
0001
0010
1001
0010
0100
0010
1001
0010
0100
1000
0101
0010
0100
1000
,
0011
1000
0100
0010
1001
0010
0001
1000
0101
1000
0100
0001
1110
0001
0010
0100
,
1000
0001
0010
0001
0010
0001
0010
0001
0010
0001
0010
0100
1011
0100
0010
0001
,
0010
0001
0010
0001
0010
0001
0010
0001
0010
0001
0010
0001
1110
0001
0010
0001
,
2010
0200
3302
0200
2303
0200
3302
0200
,
0000
0303
0000
0000
,
0000
0000
1010
1010
0101
1010
1011
0011
,
1000
0000
1010
0101
1010
0000
0011
0000
0011
0000
1001
0000
1101
0000
1001
0000
,
0010
0000
1010
0101
1010
0000
0011
0000
1001
0000
1001
0000
1101
0000
1010
0000
,
1010
0000
0101
1010
0101
0000
1010
0000
1010
0000
0011
0000
1110
0000
0011
0000
,
0011
0000
1001
1100
1001
0000
0011
0000
0110
0000
1100
0000
0101
0000
0101
0000
,
1101
0000
1001
1010
1001
0000
1010
0000
1010
0000
0011
0000
0011
0000
1001
0000
,
1001
1010
1001
0011
0110
1100
0011
1010
,
1110
0001
1110
0001
1110
0001
1110
0100
,
0000
0000
1000
1000
1000
0100
1010
0001
1110
0001
1010
0100
1011
0100
0011
0000
,
1101
0000
1001
0011
1001
0000
0011
1000
0011
0000
1001
0010
1001
0100
0011
1000
,
0111
0000
0011
0000
1011
0000
0101
1000
0101
1000
0101
0000
1110
0000
1010
0001
,
1010
0001
1100
0011
1100
0000
1010
0000
1010
0000
0101
0001
1110
0001
1100
0001
,
1010
0100
1001
1100
1001
0000
0011
0000
0110
0000
1100
0000
0101
0000
0101
0000
,
0111
0000
1001
1010
1001
0000
1010
0000
1010
0000
0011
0000
0011
0000
1001
0000
,
1001
1010
1001
0011
0110
1100
0111
0101
,
0111
1000
0111
1000
0001
0001
0111
1000
,
0000
0000
0010
0100
1010
0000
1010
0000
0001
0000
1010
0000
0000
0000
0011
0000
,
0000
0000
0010
0100
1010
0000
1010
0000
0101
0000
0101
0000
0000
0000
0101
0000
,
0000
0000
1000
1000
0011
0000
0011
0000
1001
0000
1001
0000
0000
0000
1010
0000
,
1010
0000
0001
0010
0101
0000
0101
0000
1010
0000
1010
0000
0000
0000
0011
0000
,
0011
0000
1000
1100
1001
0000
0011
0000
0110
0000
1100
0000
0101
0000
0101
0000
,
0000
0000
1000
1100
1001
0000
1001
0000
1010
0000
1010
0000
0011
0000
1001
0000
,
1001
1010
1001
0011
0110
1100
0101
0101
,
0000
0010
0010
1000
0010
0010
1000
0001
,
0010
0000
0100
0000
2001
0010
0001
0010
0001
0010
0001
0010
0001
0010
0001
0010
,
0001
0010
0001
0001
0100
0010
0001
0010
0001
0010
0001
0010
0001
0010
0001
0010
,
0001
0010
0001
0001
0100
0010
0001
0010
0100
0010
0001
0010
0100
0010
0001
0100
,
0010
0100
0001
0001
0100
0010
0001
0010
0100
0001
0010
0001
0010
0001
0010
0001
,
0010
0100
0001
0001
0100
0010
0100
0001
0010
0100
0001
0001
0100
0010
0001
0100
,
0010
0100
0001
0001
0100
0000
0010
0000
0001
0000
0100
0100
0001
0000
0010
0000
,
0100
0002
0200
0323
0002
0233
0020
0332
,
0200
0323
0000
0000
0000
0000
0000
0000
,
3030
0000
0000
0000
;
